Sèries Aventura
Sèries Biografia
Your IP Address is . Location is Your ISP and Government can track your torrent activity! Hide your IP with a VPN!

Rocket Raja (Thikka) 2016 Hindi Dubbed 720p WEB-DL x264 AAC { TaRa }.mkv

DOWNLOAD TORRENT DOWNLOAD DOWNLOAD ANONYMOUS

Posted by SkTaRa •168 on February 13, 2018 in Movies » Drama , verified torrent

Size: 1.03 GB , Seeds: 49 , Peers: 22 ( Updated February 19, 2018 - Refresh )

* Download via Magnet Link , * To download files you need a Bittorrent Client , * How to download torrents from Bit Torrent Scene?

Scrape History ( seeds + peers )

Internal Files

Rocket Raja (Thikka) 2016 Hindi Dubbed 720p WEB-DL x264 AAC { TaRa }
www.hdsector.to.txt   793 Byte
www.hdsector.to.nfo   6.53 KB
Thikka-Movie-Release-Date-Wallpapers-3.jpg   151.3 KB
www.hdsector.to.jpg   167.04 KB
Rocket Raja (Thikka) 2016 Hindi Dubbed 720p WEB-DL x264 AAC { TaRa }.mkv   1.03 GB

Hash Code

158ed5a0fca7603c2c2c9d3fd3735255a10dc212

Description


Rocket Raja (Thikka) 2016 Hindi Dubbed 720p WEB-DL x264 AAC { TaRa }.mkv
SCREENSHOT
SCREENSHOT
===================================================================
General
Complete name : Rocket Raja (Thikka) 2016 Hindi Dubbed 720p WEB-DL x264 AAC { TaRa }.mkv
Format : Matroska
Format version : Version 4 / Version 2
File size : 1.03 GiB
Duration : 1 h 59 min
Overall bit rate : 1 231 kb/s
===================================================================
Video
ID : 1
Format : AVC
Format/Info : Advanced Video Codec
Format profile : [email protected]
Format settings, CABAC : Yes
Format settings, ReFrames : 4 frames
Codec ID : V_MPEG4/ISO/AVC
Duration : 1 h 59 min
Bit rate : 1 100 kb/s
Width : 1 280 pixels
Height : 544 pixels
Display aspect ratio : 2.35:1
Frame rate mode : Constant
Frame rate : 25.000 FPS
Color space : YUV
Chroma subsampling : 4:2:0
Bit depth : 8 bits
Scan type : Progressive
Bits/(Pixel*Frame) : 0.063
Stream size : 942 MiB (90%)
Title : .....::::: TaRa :::::.....
Language : Hindi
Default : Yes
Forced : Yes
===================================================================
Audio
ID : 2
Format : AAC
Format/Info : Advanced Audio Codec
Format profile : LC
Codec ID : A_AAC
Duration : 1 h 59 min
Bit rate : 126 kb/s
Channel(s) : 2 channels
Channel positions : Front: L R
Sampling rate : 44.1 kHz
Frame rate : 43.066 FPS (1024 spf)
Compression mode : Lossy
Stream size : 107 MiB (10%)
Title : .....::::: TaRa :::::.....
Language : Hindi
Default : Yes
Forced : No
===================================================================

SCREENSHOT
SCREENSHOT
SCREENSHOT
SCREENSHOT
SCREENSHOT
SCREENSHOT
SCREENSHOT
SCREENSHOT
SCREENSHOT
SCREENSHOT
SCREENSHOT
SCREENSHOT
SCREENSHOT
SCREENSHOT
SCREENSHOT
SCREENSHOT
SCREENSHOT
SCREENSHOT
SCREENSHOT
SCREENSHOT
SCREENSHOT

SCREENSHOT
SCREENSHOT
SCREENSHOT
SCREENSHOT
SCREENSHOT
SCREENSHOT

SCREENSHOT

Trackers

Refresh Leechers : Updated February 19, 2018

1. udp://tracker.coppersurfer.tk:6969/announce

2. udp://tracker.pirateparty.gr:6969/announce

3. udp://shadowshq.yi.org:6969/announce

4. udp://eddie4.nl:6969/announce

5. udp://tracker.leechers-paradise.org:6969/announce

6. udp://tracker.opentrackr.org:1337/announce

7. udp://p4p.arenabg.ch:1337/announce

8. udp://p4p.arenabg.com:1337/announce

9. udp://9.rarbg.me:2710/announce

10. udp://9.rarbg.to:2770/announce

11. udp://tracker.coppersurfer.tk:80/announce

12. udp://tracker.vanitycore.co:6969/announce

13. udp://public.popcorn-tracker.org:6969/announce

14. udp://tracker.opentrackr.org:1337/announce

15. udp://tracker.zer0day.to:1337/announce

Comments

You must log in to add a comment.

Embed Code

Sharing Widget

Top Movies ( auto generated report )

FILENAME SIZE SEEDS PEERS ADDED UPD
[i] The Disaster Artist (2017) [WEBRip] [1080p] [YTS AM] 1.72 GB 2286 1063 1 day 6 hours
[i] The Disaster Artist (2017) [WEBRip] [720p] [YTS AM] 947.02 MB 2281 1282 1 day 6 hours
[i] The Man Who Invented Christmas (2017) [WEBRip] [720p] [YTS AM] 967.45 MB 1938 1100 1 day 6 hours
[i] The Man Who Invented Christmas (2017) [WEBRip] [1080p] [YTS AM] 1.75 GB 1642 836 1 day 6 hours
[i] Raw (2016) [BluRay] [720p] [YTS AM] 909.03 MB 1078 580 1 day 6 hours
[i] Selfie from Hell (2018) [WEBRip] [720p] [YTS AM] 699.1 MB 1069 559 1 day 6 hours
[i] Wonder Wheel (2017) [WEBRip] [720p] [YTS AM] 919.29 MB 1182 860 5 hours 3 hours
[i] Wonder Wheel (2017) [WEBRip] [1080p] [YTS AM] 1.67 GB 990 583 5 hours 3 hours
[i] Raw (2016) [BluRay] [1080p] [YTS AM] 1.64 GB 821 318 1 day 6 hours
[i] Selfie from Hell (2018) [WEBRip] [1080p] [YTS AM] 1.26 GB 759 324 1 day 6 hours